Premiere CS4 output

Ένας χώρος για τις δικές σας multimedia δημιουργίες.

Συντονιστές: Super-Moderators, Graphics Moderators

Απάντηση
Intefix
Δημοσιεύσεις: 186
Εγγραφή: 22 Σεπ 2007 16:21
Τοποθεσία: Ηράκλειο Κρήτης
Επικοινωνία:

Premiere CS4 output

Δημοσίευση από Intefix » 02 Δεκ 2009 14:36

Έχω ενα camcorder που γράφει και με το παρκάτω πρότυπο..

Κώδικας: Επιλογή όλων

General
Complete name                    : C:\Documents and Settings\Administrator\Επιφάνεια εργασίας\100MEDIA\FILE0007.MOV
Format                           : MPEG-4
Format profile                   : QuickTime
Codec ID                         : qt  
File size                        : 69.0 MiB
Duration                         : 1mn 30s
Overall bit rate                 : 6 419 Kbps
Encoded date                     : UTC 2009-11-25 07:37:44
Tagged date                      : UTC 2009-11-25 07:01:05
AMBA                             : 

Video
Format                           : AVC
Format/Info                      : Advanced Video Codec
Format profile                   : Main@L4.0
Format settings, CABAC           : Yes
Format settings, ReFrames        : 4 frames
Codec ID                         : avc1
Codec ID/Info                    : Advanced Video Coding
Duration                         : 1mn 30s
Bit rate mode                    : Variable
Width                            : 1 920 pixels
Height                           : 1 080 pixels
Display aspect ratio             : 16/9
Frame rate mode                  : Constant
Frame rate                       : 29.970 fps
Resolution                       : 24 bits
Colorimetry                      : 4:2:0
Scan type                        : Progressive
Bits/(Pixel*Frame)               : 0.000
Stream size                      : 64.8 MiB (94%)
Title                            : Ambarella AVC
Encoded date                     : UTC 2009-11-25 07:37:44
Tagged date                      : UTC 2009-11-25 07:37:44

Audio
Format                           : ADPCM
Codec ID                         : 11
Codec ID/Info                    : Intel ADPCM
Duration                         : 1mn 30s
Bit rate mode                    : Constant
Bit rate                         : 384 Kbps
Channel(s)                       : 2 channels
Sampling rate                    : 48.0 KHz
Resolution                       : 16 bits
Stream size                      : 4.13 MiB (6%)
Title                            : Ambarella AAC
Encoded date                     : UTC 2009-11-25 07:37:44
Tagged date                      : UTC 2009-11-25 07:37:44
Στο Premiere CS4 τι πρότυπο να χρησιμοποιήσω για max ποιότητα;
Γιατί με έξοδο output 1920Χ1080 Mp4 βγάζει ερκετά μεγαλύτερο από το πρωτότυπο;

Δηλαδή 1 clip 1,5 min είναι περίπου 70mb σε .MOV ενώ σε .Μp4 350mb
το info παρακάτω...

Κώδικας: Επιλογή όλων

General
Complete name                    : C:\Documents and Settings\Administrator\Τα έγγραφά μου\Adobe\Premiere Pro\4.0\Sequence 01.mp4
Format                           : MPEG-4
Format profile                   : Base Media / Version 2
Codec ID                         : mp42
File size                        : 346 MiB
Duration                         : 1mn 30s
Overall bit rate                 : 32.2 Mbps
Encoded date                     : UTC 2009-11-25 07:20:38
Tagged date                      : UTC 2009-11-25 07:20:38

Video
Format                           : AVC
Format/Info                      : Advanced Video Codec
Format profile                   : Main@L4.2
Format settings, CABAC           : Yes
Format settings, ReFrames        : 3 frames
Codec ID                         : avc1
Codec ID/Info                    : Advanced Video Coding
Duration                         : 1mn 30s
Bit rate mode                    : Variable
Bit rate                         : 32.0 Mbps
Width                            : 1 920 pixels
Height                           : 1 080 pixels
Display aspect ratio             : 16/9
Frame rate mode                  : Constant
Frame rate                       : 25.000 fps
Standard                         : PAL
Resolution                       : 24 bits
Colorimetry                      : 4:2:0
Scan type                        : Progressive
Bits/(Pixel*Frame)               : 0.618
Stream size                      : 344 MiB (99%)
Language                         : English
Encoded date                     : UTC 2009-11-25 07:20:38
Tagged date                      : UTC 2009-11-25 07:20:38

Audio
Format                           : AAC
Format/Info                      : Advanced Audio Codec
Format version                   : Version 4
Format profile                   : LC
Format settings, SBR             : No
Codec ID                         : 40
Duration                         : 1mn 30s
Bit rate mode                    : Variable
Bit rate                         : 157 Kbps
Maximum bit rate                 : 245 Kbps
Channel(s)                       : 2 channels
Channel positions                : L R
Sampling rate                    : 48.0 KHz
Resolution                       : 16 bits
Stream size                      : 1.69 MiB (0%)
Language                         : English
Encoded date                     : UTC 2009-11-25 07:20:38
Tagged date                      : UTC 2009-11-25 07:20:38


Intefix
Δημοσιεύσεις: 186
Εγγραφή: 22 Σεπ 2007 16:21
Τοποθεσία: Ηράκλειο Κρήτης
Επικοινωνία:

Premiere CS4 output

Δημοσίευση από Intefix » 03 Δεκ 2009 15:25

Η κάμερα αυτή σε κάθε start-stop κάνει ένα κλιπάκι mov.
Με τι εργαλείο τα ενώνω άντε να κάνω και κανα κόψιμο η κανα transition;...
Και μετά τα πετάω σε DVD;
Αλλά να βγεί το ίδιο μέγεθος με το πρωτότυπο περίπου;....

Καμμιά βοήθεια ρε παιδιά...!!!

Απάντηση

Επιστροφή στο “Δημιουργίες Εικόνας, Video & Ήχου”

Μέλη σε σύνδεση

Μέλη σε αυτήν τη Δ. Συζήτηση: Δεν υπάρχουν εγγεγραμμένα μέλη και 1 επισκέπτης